Info




Budget: 49000000$

Stato: Released

Tagline: IL THRILLER PIÙ SENSUALE DEGLI ULTIMI VENT'ANNI!

Cast:




San Francisco, l’ex musicista rock Johnny Boz viene trovato morto, ucciso con un punteruolo da ghiaccio all’apice di un infuocato amplesso e il detective Nick Curran, soprannominato “Giustiziere” (che in passato aveva accidentalmente sparato a due turisti cocainomani), è incaricato di occuparsi del caso. I sospetti cadono sulla scrittrice e psicologa bisessuale Catherine Tramell, che si trovava insieme a Boz nel suo locale la notte del delitto. …………………

Trailer


Upload on Youtube

Info File

Video
ID : 0
Format : MPEG-4 Visual
Format profile : [email protected]
Format settings, BVOP : No
Format settings, QPel : No
Format settings, GMC : No warppoints
Format settings, Matrix : Default (H.263)
Codec ID : XVID
Codec ID/Hint : XviD
Duration : 2h 8mn
Bit rate : 1 196 Kbps
Width : 714 pixels
Height : 304 pixels
Display aspect ratio : 2.35:1
Frame rate : 23.976 fps
Color space : YUV
Chroma subsampling : 4:2:0
Bit depth : 8 bits
Scan type : Progressive
Compression mode : Lossy
Bits/(Pixel*Frame) : 0.230
Stream size : 1.07 GiB (62%)
Writing library : XviD 64

Audio #1
ID : 1
Format : AC-3
Format/Info : Audio Coding 3
Mode extension : CM (complete main)
Codec ID : 2000
Duration : 2h 8mn
Bit rate mode : Constant
Bit rate : 256 Kbps
Channel(s) : 2 channels
Channel positions : Front: L R
Sampling rate : 48.0 KHz
Bit depth : 16 bits
Compression mode : Lossy
Stream size : 235 MiB (13%)
Alignment : Split accross interleaves
Interleave, duration : 42 ms (1.00 video frame)
Interleave, preload duration : 500 ms

Trackers

http://tracker.publicbt.com:80/
http://tracker.istole.it:80/
http://tracker.tntvillage.scambioetico.org:2710/scrape
http://open.demonii.com:1337/scrape
http://tracker.coppersurfer.tk:6969/scrape
http://tracker.openbittorrent.com/scrape
torrents | Möbel & Wohnen | Game of Thrones Saison 6 VOSTFR 2016 Game of Thrones Saison 6 streaming VOSTFR HD Il y a très longtemps, à une époque oubliée, une force a détruit l'équilibre des saisons. Dans un pays o... Directeur: D.B. Weiss, David Benioff Acteurs: Peter Dinklage, Nikolaj Coster-Waldau, Lena Headey 1,079,088 Vues 40 Commentaire