Info

Burning Bright


5.9
IMDB: 5.9/10 5,052 votes

Durata: 86 min

Released:

Anno: 02 May 2012

Direttore:

Premi: N/A

Stato: Released

Paese: USA

Cast:




Protagonisti della storia la giovane Kelly e il suo fratellino; i due si ritrovano chiusi nella propria casa, con porte e finestre sbarrate, mentre fuori imperversa un terribile uragano. Dopo un po’, però, un altro orrore inizia a percuotere le loro menti: pare infatti che un’enorme e affamata tigre si aggiri all’interno dell’abitazione……..

Trailer


Upload on Youtube

Info File

Complete name : Burning Bright (2010).avi
Format : AVI
Format/Info : Audio Video Interleave
File size : 558 MiB
Duration : 1h 25mn
Overall bit rate : 912 Kbps
Writing library : MPlayer

Video
ID : 0
Format : MPEG-4 Visual
Format profile : Advanced [email protected]
Format settings, BVOP : Yes
Format settings, QPel : No
Format settings, GMC : No warppoints
Format settings, Matrix : Default (H.263)
Codec ID : XVID
Codec ID/Hint : XviD
Duration : 1h 25mn
Bit rate : 772 Kbps
Width : 624 pixels
Height : 352 pixels
Display aspect ratio : 16:9
Frame rate : 23.976 fps
Color space : YUV
Chroma subsampling : 4:2:0
Bit depth : 8 bits
Scan type : Progressive
Bits/(Pixel*Frame) : 0.147
Stream size : 473 MiB (85%)
Writing library : XviD 63

Audio
ID : 1
Format : MPEG Audio
Format version : Version 1
Format profile : Layer 3
Mode : Joint stereo
Mode extension : MS Stereo
Codec ID : 55
Codec ID/Hint : MP3
Duration : 1h 25mn
Bit rate mode : Constant
Bit rate : 128 Kbps
Channel(s) : 2 channels
Sampling rate : 44.1 KHz
Video delay : 42ms
Stream size : 78.4 MiB (14%)
Alignment : Aligned on interleaves
Interleave, duration : 26 ms (0.63 video frame)
Interleave, preload duration : 809 ms

Trackers

http://tracker.istole.it:80/
http://tracker.publicbt.com:80/
http://tracker.tntvillage.scambioetico.org:2710/scrape
http://open.demonii.com:1337/scrape
http://tracker.coppersurfer.tk:6969/scrape
http://tracker.openbittorrent.com/scrape
SMILFS02E04 | Golden Girls | British Detectives (Books)