Info




Budget: 30000000$

Incassi: 295212467$

Stato: Released

Tagline: Sono arrivati per salvare il mondo

Cast:




I dottori Venkman, Stantz e Spengler, studiosi di parapsicologia, vengono cacciati dall’università e decidono d’inventarsi un mestiere: dietro lauto compenso, libereranno gli immobili da ectoplasmi nocivi, fantasmi o poltergeist che siano.

Trailer


Upload on Youtube

Info File

Video
ID : 1
Format : HEVC
Format/Info : High Efficiency Video Coding
Codec ID : V_MPEGH/ISO/HEVC
Duration : 1h 45mn
Bit rate : 5 216 Kbps
Width : 1 920 pixels
Height : 808 pixels
Display aspect ratio : 2.40:1
Frame rate mode : Constant
Frame rate : 23.976 fps
Bits/(Pixel*Frame) : 0.140
Stream size : 3.83 GiB (79%)
Title : Video H.265 (Encoded by ZMachine)
Default : Yes
Forced : Yes

Audio #1
ID : 2
Format : AC-3
Format/Info : Audio Coding 3
Mode extension : CM (complete main)
Format settings, Endianness : Big
Codec ID : A_AC3
Duration : 1h 45mn
Bit rate mode : Constant
Bit rate : 640 Kbps
Channel(s) : 6 channels
Channel positions : Front: L C R, Side: L R, LFE
Sampling rate : 48.0 KHz
Bit depth : 16 bits
Compression mode : Lossy
Stream size : 481 MiB (10%)
Title : Audio AC3 5.1
Language : Italian
Default : Yes
Forced : No

Trackers

http://tracker.istole.it:80/
http://tracker.publicbt.com:80/
http://tracker.tntvillage.scambioetico.org:2710/scrape
http://open.demonii.com:1337/scrape
http://tracker.coppersurfer.tk:6969/scrape
http://tracker.openbittorrent.com/scrape
Talk-Show | Download ringtone | Animes Boogiepop wa Warawanai (2019) 1x05